Скачать через торрент Суперполицейские 2 Super Troopers 2 Фильм бесплатно в хорошем качестве torrent

Скачивайте на UnionPeer.org фильмы через торрент без регистрации. Новинки кино в хорошем качестве через торрент. На UnionPeer.org можно скачать через торрент фильмы 2014 и 2015 годов. Самые новые фильмы.

Скачать торрент Суперполицейские 2 Super Troopers 2 бесплатно через .torrent фильм мультфильм сериал

Статистика раздачи
Размер:  10.92 GB   |    Зарегистрирован:  9 дней   |    .torrent скачан:  188 раз   |   
Раздают:  2  
   
загрузка...
 
Автор Сообщение

Galfimbul

avatar Galfimbul


Суперполицейские 2 / Super Troopers 2

Год выхода: 2018
Жанр: Комедия, криминал, детектив
Страна: США
Перевод: Профессиональный (многоголосый, закадровый) | iTunes
Продолжительность: 01:39:30
Режиссер: Джей Чандрашекхар
В ролях: Шонн Уильям Скотт, Клифтон Коллинз мл., Стив Лемми, Эрик Столханске, Джей Чандрашекхар, Пол Сотер, Дэймон Уайанс мл., Кевин Хеффернан, Брайан Кокс, Мариса Кохлан и др.

О фильме: Фильм расскажет о безалаберных дорожных патрульных из маленького городка на границе США и Канады. Чтобы навести порядок на пограничной дороге и разрешить международный конфликт, пятёрка суперполицейских вынуждена сотрудничать со своими невыносимыми канадскими коллегами.



Файл
Формат: MKV
Качество: BDRip 1080p
Видео: MPEG-4 AVC, 1920x1038, 14500 kbps, 23,976 fps
Звук#1: русский, AC3, 5.1, 48 kHz, 384 kbps | iTunes
Звук#2: украинский, AC3, 2.0, 48 kHz, 192 kbps | Дубляж iTunes
Звук#3: английский, AC3, 5.1, 48 kHz, 640 kbps | оригинал
Субтитры: русские, украинские, английские
General
Уникальный идентификатор : 233048447279031604395091579948695238905 (0xAF537F914B515695B75C1824065338F9)
Полное имя : F:TorrentSuperTroopers2BDRip1080p.mkv
Формат : Matroska
Версия формата : Version 4 / Version 2
Размер файла : 10.9 GiB
Продолжительность : 1 h 39 min
Общий поток : 15.7 Mb/s
Дата кодирования : UTC 2018-08-10 08:08:09
Программа кодирования : mkvmerge v9.5.0 ('Quiet Fire') 64bit
Библиотека кодирования : libebml v1.3.4 + libmatroska v1.4.5

Video
Идентификатор : 1
Формат : AVC
Формат/Информация : Advanced Video Codec
Профиль формата : [email protected]
Настройки формата : CABAC / 4 Ref Frames
Параметр CABAC формата : Yes
Параметр RefFrames формата : 4 frames
Идентификатор кодека : V_MPEG4/ISO/AVC
Продолжительность : 1 h 39 min
Битрейт : 14.5 Mb/s
Ширина : 1 920 pixels
Высота : 1 038 pixels
Соотношение сторон : 1.85:1
Режим частоты кадров : Constant
Частота кадров : 23.976 (24000/1001) FPS
Цветовое пространство : YUV
Субдискретизация насыщенности : 4:2:0
Битовая глубина : 8 bits
Тип развёртки : Progressive
Бит/(Пиксели*Кадры) : 0.303
Размер потока : 10.1 GiB (92%)
Библиотека кодирования : x264 core 155 r2901M 7d0ff22
Настройки программы : cabac=1 / ref=4 / deblock=1:-3:-3 / analyse=0x3:0x113 / me=umh / subme=11 / psy=1 / psy_rd=1.00:0.00 / mixed_ref=1 / me_range=48 / chroma_me=1 / trellis=2 / 8x8dct=1 / cqm=0 / deadzone=21,11 / fast_pskip=0 / chroma_qp_offset=-2 / threads=9 / lookahead_threads=2 / sliced_threads=0 / nr=0 / decimate=0 / interlaced=0 / bluray_compat=0 / constrained_intra=0 / bframes=14 / b_pyramid=2 / b_adapt=2 / b_bias=0 / direct=3 / weightb=1 / open_gop=0 / weightp=2 / keyint=240 / keyint_min=24 / scenecut=40 / intra_refresh=0 / rc_lookahead=120 / rc=2pass / mbtree=0 / bitrate=14500 / ratetol=1.0 / qcomp=0.70 / qpmin=0 / qpmax=69 / qpstep=4 / cplxblur=20.0 / qblur=0.5 / vbv_maxrate=50000 / vbv_bufsize=62500 / nal_hrd=none / filler=0 / ip_ratio=1.40 / pb_ratio=1.30 / aq=3:0.80
Язык : English
Default : Yes
Forced : No

Audio #1
Идентификатор : 2
Формат : AC-3
Формат/Информация : Audio Coding 3
Идентификатор кодека : A_AC3
Продолжительность : 1 h 39 min
Вид битрейта : Constant
Битрейт : 384 kb/s
Каналы : 6 channels
Расположение каналов : Front: L C R, Side: L R, LFE
Частота : 48.0 kHz
Частота кадров : 31.250 FPS (1536 SPF)
Битовая глубина : 16 bits
Метод сжатия : Lossy
Размер потока : 273 MiB (2%)
Язык : Russian
Default : Yes
Forced : No

Audio #2
Идентификатор : 3
Формат : AC-3
Формат/Информация : Audio Coding 3
Идентификатор кодека : A_AC3
Продолжительность : 1 h 39 min
Вид битрейта : Constant
Битрейт : 192 kb/s
Каналы : 2 channels
Расположение каналов : Front: L R
Частота : 48.0 kHz
Частота кадров : 31.250 FPS (1536 SPF)
Битовая глубина : 16 bits
Метод сжатия : Lossy
Размер потока : 137 MiB (1%)
Язык : Ukrainian
Default : No
Forced : No

Audio #3
Идентификатор : 4
Формат : AC-3
Формат/Информация : Audio Coding 3
Идентификатор кодека : A_AC3
Продолжительность : 1 h 39 min
Вид битрейта : Constant
Битрейт : 640 kb/s
Каналы : 6 channels
Расположение каналов : Front: L C R, Side: L R, LFE
Частота : 48.0 kHz
Частота кадров : 31.250 FPS (1536 SPF)
Битовая глубина : 16 bits
Метод сжатия : Lossy
Размер потока : 456 MiB (4%)
Язык : English
Default : No
Forced : No

Text #1
Идентификатор : 5
Формат : UTF-8
Идентификатор кодека : S_TEXT/UTF8
Идентификатор кодека/Информация : UTF-8 Plain Text
Продолжительность : 1 h 38 min
Битрейт : 119 b/s
ElementCount : 1801
Размер потока : 86.1 KiB (0%)
Язык : Russian
Default : No
Forced : No

Text #2
Идентификатор : 6
Формат : UTF-8
Идентификатор кодека : S_TEXT/UTF8
Идентификатор кодека/Информация : UTF-8 Plain Text
Продолжительность : 1 h 37 min
Битрейт : 130 b/s
ElementCount : 1803
Размер потока : 93.2 KiB (0%)
Язык : Ukrainian
Default : No
Forced : No

Text #3
Идентификатор : 7
Формат : UTF-8
Идентификатор кодека : S_TEXT/UTF8
Идентификатор кодека/Информация : UTF-8 Plain Text
Продолжительность : 1 h 38 min
Битрейт : 97 b/s
ElementCount : 2247
Размер потока : 70.4 KiB (0%)
Язык : English
Default : No
Forced : No

Menu
00:00:00.000 : :00:00:00.000
00:05:15.398 : :00:05:15.398
00:09:08.757 : :00:09:08.757
00:12:43.012 : :00:12:43.012
00:16:12.972 : :00:16:12.972
00:22:11.956 : :00:22:11.956
00:26:35.552 : :00:26:35.552
00:29:48.620 : :00:29:48.620
00:33:19.956 : :00:33:19.956
00:36:33.608 : :00:36:33.608
00:40:04.527 : :00:40:04.527
00:43:10.880 : :00:43:10.880
00:46:35.209 : :00:46:35.209
00:51:43.142 : :00:51:43.142
00:55:46.802 : :00:55:46.802
01:01:09.207 : :01:01:09.207
01:04:57.018 : :01:04:57.018
01:07:07.065 : :01:07:07.065
01:11:33.247 : :01:11:33.247
01:14:53.531 : :01:14:53.531
01:17:32.523 : :01:17:32.523
01:22:55.137 : :01:22:55.137
01:26:08.622 : :01:26:08.622
01:28:43.902 : :01:28:43.902
Источник http://BlaTor.org

Трекер:  [ 10-Авг-2018 13:30 ]

  

Скачать .torrent

Размер .torrent файла 28 KB


Размер: 10.92 GB
Хэш (hash) релиза: 841ddc0dd5ee0b2ed583a9ee589f7e9f99224e23
Подписка на обновления:

Торренты, похожие на Суперполицейские 2 Super Troopers 2 скачать торрент

Форум Название Автор Размер S L Добавлен
Зарубежные фильмы 2016-2018 (Новинки зарубежного кино) ·%· Суперполицейские 2 / Super Troopers 2 (2018) BDRip | iTunes Galfimbul 15741069381.47 GB 3 0 1533897054

13:30

10-Авг-18

Зарубежные фильмы 2016-2018 (Новинки зарубежного кино) ·%· Суперполицейские 2 / Super Troopers 2 (2018) BDRip 720p | iTunes Galfimbul 57585063325.36 GB 0 0 1533897036

13:30

10-Авг-18

Зарубежные фильмы 2016-2018 (Новинки зарубежного кино) ·%· Суперполицейские 2 / Super Troopers 2 (2018) BDRip-AVC | HDRezka Studio Galfimbul 782218845746 MB 0 0 1532179212

16:20

21-Июл-18

Зарубежные фильмы 2016-2018 (Новинки зарубежного кино) ·%· Суперполицейские 2 / Super Troopers 2 (2018) BDRip от MegaPeer | HDRezka Studio Galfimbul 782957994747 MB 0 0 1531648812

13:00

15-Июл-18

Зарубежные фильмы 2016-2018 (Новинки зарубежного кино) ·%· Суперполицейские 2 / Super Troopers 2 (2018) BDRip-AVC от OlLanDGroup | HDRezka Studio Galfimbul 23515167062.19 GB 2 0 1531627226

07:00

15-Июл-18

Зарубежные фильмы 2016-2018 (Новинки зарубежного кино) ·%· Суперполицейские 2 / Super Troopers 2 (2018) BDRip от MegaPeer | HDRezka Studio Galfimbul 15713648641.46 GB 0 0 1531587017

19:50

14-Июл-18

Зарубежные фильмы 2016-2018 (Новинки зарубежного кино) ·%· Суперполицейские 2 / Super Troopers 2 (2018) BDRip 1080p | HDRezka Studio Galfimbul 1193206009011.11 GB 0 0 1531580421

18:00

14-Июл-18

Еще никто не оставлял запись к записи скачать торрент Суперполицейские 2 Super Troopers 2 . Будь первым!

!Обратная связь